The Fate of the Furious (Fast And Furious 8) (2017) | เร็ว…แรงทะลุนรก 8

วิน ดีเซล, ดเวย์น จอห์นสัน และ มิเชล ร็อดริเกซ นำทีมซิ่งในภาพยนตร์ฮิตถล่มทลายไปทั่วโลกที่อัดแน่นด้วยความมันส์พลังแรงสูงกับ Fast & Furious 8 เวลานี้ ดอม (ดีเซล) และเล็ตตี้ (ร็อดริเกซ) ได้แต่งงานกัน ส่วนไบรอันและมีอาก็ปลดระวางตัวเองไปใช้ชีวิตครอบครัว ขณะที่สมาชิกร่วมแก๊งคนอื่นๆ ก็พ้นจากข้อกล่าวหา และกลับมาใช้ชีวิตอย่างปกติ จนเมื่อสตรีลึกลับนางหนึ่ง (ผู้ชนะรางวัลออสการ์ ชาร์ลิซ เธอรอน) เข้ามาล่อลวงดอมสู่โลกอาชญากรรม โดยที่เขาไม่มีทางเลือกและกลายเป็นคนทรยศต่อครอบครัว More & Download »

Resident Evil:Vendetta (2017) | ล้างบางเชื้อคลั่ง/สงครามแค้นแพร่พันธุ์ไวรัส

หน่วยงาน BSAA “คริส เรดฟิลด์” ได้ทำการสืบสวนหาสาเหตุการแพร่กระจายไวรัสชนิดใหม่ ที่ทำให้คนที่ตายไปแล้วคืนชีพขึ้นมาและบ้าคลั่งทำร้า ยคนอื่น โดยมีเบื้องหลังคือพ่อค้าอาวุธชีวภาพ “เกลน แอรีส” ชายผู้หมายจะครองตลาดค้าอาวุธชีวภาพด้วยการเก็บตกเหล ่าเชื้อไวรัสของบ.ไทรเซล และอัมเบรลล่า More & Download »

John Wick: Chapter 2 (2017) | จอห์น วิค: แรงกว่านรก 2

คีอานู รีฟส์ กลับมารับบทเดิมในภาคต่อของหนังแอ็คชั่นยอดฮิตแห่งปี 2014 John Wick มือสังหารผู้เป็นตำนานที่ถูกบีบให้กลับมาทำงานอีกครั้งหลังจากเกษียณตัวเองไป เพราะอดีตเพื่อนร่วมงานวางแผนเข้าควบคุมองค์กรมือสังหารลับข้ามชาติ ด้วยความผูกพันธ์ดุจพี่น้องต่างสายเลือด จอห์น ให้คำมั่นว่าจะช่วย เขาเดินทางไปกรุงโรมที่ซึ่งเขาต้องเผชิญกับบรรดานักฆ่าที่อันตรายที่สุดในโลก!!! More & Download »

Kong: Skull Island (2017) | คอง: มหาภัยเกาะกะโหลก

จากทีมผู้อำนวยการสร้าง Godzilla นำตำนานความเป็นมาของสัตว์ประหลาดที่ทรงพลังที่สุดอีกตัวหนึ่งมาสร้างสรรค์ใหม่ การผจญภัยอันแปลกใหม่ชวนติดตามจากผู้กำกับจอร์แดน วอกท์-โรเบิร์ตส์ เรื่องราวของทีมนักวิทยาศาสตร์ ทหาร และนักผจญภัย ที่มารวมตัวกันเพื่อสำรวจเกาะในตำนานกลางมหาสมุทรแปซิฟิกซึ่งไม่เคยมีใครสำรวจมาก่อน More & Download »

 

[ฝรั่ง]-[Mini-HD] Despicable Me 3 (2017) | มิสเตอร์แสบร้ายเกินพิกัด 3 (1080p)-[พากย์ไทยโรง + อังกฤษ 2.0]

HD เสียงโรง

 เรื่องย่อ 


      Despicable Me 3 พบกับการกลับมาของกรู, ลูซี่ พร้อมด้วยลูกสาวสุดที่รัก มาร์โก, อีดิธ และแอ็กเนส รวมถึงเจ้าตัวเหลือง มินเนี่ยน Despicable Me 3 มิสเตอร์แสบ ร้ายเกินพิกัด 3 กำกับโดย ปีแอร์ คอฟฟิน และไคล์ บัลดา โดยได้ สตีฟ คาเรลล์ และคริสเทน วิก กลับมาให้เสียงพากย์เหมือนเดิม ร่วมด้วย เทรย์ พาร์คเกอร์ เจ้าของรางวัลเอ็มมี่, โทนี่ และแกรมมี่ ที่มาให้เสียงพากย์วายร้ายตัวใหม่ บัลธาซาร์ แบรตต์ อดีตดาราเด็กที่ยังฝังใจกับคาแรกเตอร์ที่เขาเล่นในยุค 80’s

File Info

Format : Matroska
File size : 4.03 GiB
Duration : 1 h 29 min
Overall bit rate : 6 443 kb/s
Movie name : [email protected]

Video
ID : 1
Format : AVC
Format/Info : Advanced Video Codec
Format profile : [email protected]
Format settings, CABAC : Yes
Format settings, RefFrames : 4 frames
Codec ID : V_MPEG4/ISO/AVC
Duration : 1 h 29 min
Bit rate : 5 898 kb/s
Width : 1 920 pixels
Height : 800 pixels
Display aspect ratio : 2.40:1
Frame rate mode : Constant
Frame rate : 30.000 FPS
Color space : YUV
Chroma subsampling : 4:2:0
Bit depth : 8 bits
Scan type : Progressive
Bits/(Pixel*Frame) : 0.128
Stream size : 3.69 GiB (92%)
Title : [email protected]
Language : English
Default : Yes
Forced : No
Color range : Limited
Color primaries : BT.709
Transfer characteristics : BT.709
Matrix coefficients : BT.709

Audio #1
ID : 2
Format : AAC
Format/Info : Advanced Audio Codec
Format profile : LC
Codec ID : A_AAC
Duration : 1 h 29 min
Bit rate : 317 kb/s
Channel(s) : 2 channels
Channel positions : Front: L R
Sampling rate : 48.0 kHz
Frame rate : 46.875 FPS (1024 SPF)
Compression mode : Lossy
Stream size : 203 MiB (5%)
Title : AAC ThaiRong 2.0 By ~Mr.Captain~
Language : Thai
Default : Yes
Forced : No

Audio #2
ID : 3
Format : AAC
Format/Info : Advanced Audio Codec
Format profile : LC
Codec ID : A_AAC
Duration : 1 h 29 min
Bit rate : 224 kb/s
Channel(s) : 2 channels
Channel positions : Front: L R
Sampling rate : 48.0 kHz
Frame rate : 46.875 FPS (1024 SPF)
Compression mode : Lossy
Stream size : 143 MiB (3%)
Title : AAC English 2.0
Language : English
Default : No
Forced : No

 



VIP 1-Part

Cornfile

[ Download ]


cornfile.com



Free 1GB/Part

เปลี่ยนชื่อไฟล์ตามลำดับก่อนเเยกไฟล์ เช่น

Despicable.Me.3.part1.rar
Despicable.Me.3.part2.rar
Despicable.Me.3.part3.rar

ไฟล์เสียสามารถซ่อมได้


Leave a Reply

Your email address will not be published. Required fields are marked *