The Fate of the Furious (Fast And Furious 8) (2017) | เร็ว…แรงทะลุนรก 8

วิน ดีเซล, ดเวย์น จอห์นสัน และ มิเชล ร็อดริเกซ นำทีมซิ่งในภาพยนตร์ฮิตถล่มทลายไปทั่วโลกที่อัดแน่นด้วยความมันส์พลังแรงสูงกับ Fast & Furious 8 เวลานี้ ดอม (ดีเซล) และเล็ตตี้ (ร็อดริเกซ) ได้แต่งงานกัน ส่วนไบรอันและมีอาก็ปลดระวางตัวเองไปใช้ชีวิตครอบครัว ขณะที่สมาชิกร่วมแก๊งคนอื่นๆ ก็พ้นจากข้อกล่าวหา และกลับมาใช้ชีวิตอย่างปกติ จนเมื่อสตรีลึกลับนางหนึ่ง (ผู้ชนะรางวัลออสการ์ ชาร์ลิซ เธอรอน) เข้ามาล่อลวงดอมสู่โลกอาชญากรรม โดยที่เขาไม่มีทางเลือกและกลายเป็นคนทรยศต่อครอบครัว More & Download »

Resident Evil:Vendetta (2017) | ล้างบางเชื้อคลั่ง/สงครามแค้นแพร่พันธุ์ไวรัส

หน่วยงาน BSAA “คริส เรดฟิลด์” ได้ทำการสืบสวนหาสาเหตุการแพร่กระจายไวรัสชนิดใหม่ ที่ทำให้คนที่ตายไปแล้วคืนชีพขึ้นมาและบ้าคลั่งทำร้า ยคนอื่น โดยมีเบื้องหลังคือพ่อค้าอาวุธชีวภาพ “เกลน แอรีส” ชายผู้หมายจะครองตลาดค้าอาวุธชีวภาพด้วยการเก็บตกเหล ่าเชื้อไวรัสของบ.ไทรเซล และอัมเบรลล่า More & Download »

John Wick: Chapter 2 (2017) | จอห์น วิค: แรงกว่านรก 2

คีอานู รีฟส์ กลับมารับบทเดิมในภาคต่อของหนังแอ็คชั่นยอดฮิตแห่งปี 2014 John Wick มือสังหารผู้เป็นตำนานที่ถูกบีบให้กลับมาทำงานอีกครั้งหลังจากเกษียณตัวเองไป เพราะอดีตเพื่อนร่วมงานวางแผนเข้าควบคุมองค์กรมือสังหารลับข้ามชาติ ด้วยความผูกพันธ์ดุจพี่น้องต่างสายเลือด จอห์น ให้คำมั่นว่าจะช่วย เขาเดินทางไปกรุงโรมที่ซึ่งเขาต้องเผชิญกับบรรดานักฆ่าที่อันตรายที่สุดในโลก!!! More & Download »

Kong: Skull Island (2017) | คอง: มหาภัยเกาะกะโหลก

จากทีมผู้อำนวยการสร้าง Godzilla นำตำนานความเป็นมาของสัตว์ประหลาดที่ทรงพลังที่สุดอีกตัวหนึ่งมาสร้างสรรค์ใหม่ การผจญภัยอันแปลกใหม่ชวนติดตามจากผู้กำกับจอร์แดน วอกท์-โรเบิร์ตส์ เรื่องราวของทีมนักวิทยาศาสตร์ ทหาร และนักผจญภัย ที่มารวมตัวกันเพื่อสำรวจเกาะในตำนานกลางมหาสมุทรแปซิฟิกซึ่งไม่เคยมีใครสำรวจมาก่อน More & Download »

 

[ฝรั่ง]-[Mini-HD] Baywatch (2017) | ไลฟ์การ์ดฮอตพิทักษ์หาด (1080p)-[พากย์ไทยโรง + อังกฤษ 5.1]-[บรรยายอังกฤษ]

HD เสียงโรง

 เรื่องย่อ 


      Baywatch ซัมเมอร์นี้ จะร้อนแรงกว่าเดิม เมื่อ 2 หนุ่มกล้ามโต ดเวย์น จอห์นสัน และแซค เอฟรอน ต้องมาแท็คทีมทำงานร่วมกับสาวๆ อย่าง เคลลี่ รอห์รบัค, อเล็กซานดรา แดดดาริโอ, นีน่า โดเบรฟ ในแอ็คชั่นคอเมดี้สุดมันส์ BAYWATCH ไลฟ์การ์ดฮ็อตพิทักษ์ชายหาด ภาพยนตร์เรื่องนี้เคยเป็นทีวีซีรีย์สุดฮิตในทศวรรษ 1990 เล่าเรื่องราววีรกรรมของไลฟ์การ์ดผู้เสียสละทุ่มเทให้กับงานอย่างเต็มที่ “มิตช์ บูแชนนอน” (จอห์นสัน) ที่ไม่ค่อยลงรอยกับลูกทีมคนใหม่ “แมตต์ โบรดี้” (เอฟรอน) แต่ทั้งคู่ต้องร่วมมือกันเพื่อหยุดยั้งอาชญากรรมท้องถิ่นที่อาจเป็นภัยคุกคามต่อชายหาดแห่งนี้ในอนาคตนอกเหนือจะมีหนุ่มสาวสุดฮ็อตที่มาร่วมแสดงกันใน BAYWATCH แล้ว แฟนภาพยนตร์ยังจะได้พบกับการกลับมาในทีมนักแสดงซีรีย์ต้นฉบับ อย่าง เดวิด แฮสเซลฮอฟฟ์ และพาเมล่า แอนเดอร์สัน อีกด้วย

File Info

Format : Matroska
File size : 4.36 GiB
Duration : 1 h 56 min
Overall bit rate : 5 354 kb/s
Movie name : [email protected]

Video
ID : 1
Format : AVC
Format/Info : Advanced Video Codec
Format profile : [email protected]
Format settings, CABAC : Yes
Format settings, RefFrames : 5 frames
Muxing mode : Header stripping
Codec ID : V_MPEG4/ISO/AVC
Duration : 1 h 56 min
Bit rate : 4 416 kb/s
Width : 1 920 pixels
Height : 804 pixels
Display aspect ratio : 2.40:1
Frame rate mode : Constant
Frame rate : 23.976 (24000/1001) FPS
Color space : YUV
Chroma subsampling : 4:2:0
Bit depth : 8 bits
Scan type : Progressive
Bits/(Pixel*Frame) : 0.119
Stream size : 3.60 GiB (82%)
Title : [email protected]
Language : English
Default : Yes
Forced : No
Color range : Limited
Color primaries : BT.709
Transfer characteristics : BT.709
Matrix coefficients : BT.709

Audio #1
ID : 2
Format : AC-3
Format/Info : Audio Coding 3
Format settings, Endianness : Big
Muxing mode : Header stripping
Codec ID : A_AC3
Duration : 1 h 56 min
Bit rate mode : Constant
Bit rate : 448 kb/s
Channel(s) : 6 channels
Channel positions : Front: L C R, Side: L R, LFE
Sampling rate : 48.0 kHz
Frame rate : 31.250 FPS (1536 SPF)
Bit depth : 16 bits
Compression mode : Lossy
Delay relative to video : -43 ms
Stream size : 374 MiB (8%)
Title : ThaiRong 5.1 By ~Mr.Captain~
Language : Thai
Service kind : Complete Main
Default : Yes
Forced : Yes

Audio #2
ID : 3
Format : AC-3
Format/Info : Audio Coding 3
Format settings, Endianness : Big
Muxing mode : Header stripping
Codec ID : A_AC3
Duration : 1 h 56 min
Bit rate mode : Constant
Bit rate : 384 kb/s
Channel(s) : 6 channels
Channel positions : Front: L C R, Side: L R, LFE
Sampling rate : 48.0 kHz
Frame rate : 31.250 FPS (1536 SPF)
Bit depth : 16 bits
Compression mode : Lossy
Delay relative to video : -43 ms
Stream size : 320 MiB (7%)
Title : English DD5.1
Language : English
Service kind : Complete Main
Default : No
Forced : No

Text
ID : 4
Format : UTF-8
Codec ID : S_TEXT/UTF8
Codec ID/Info : UTF-8 Plain Text
Title : English
Language : English
Default : Yes
Forced : No

Menu
00:00:00.000 : en:1
00:07:39.000 : en:2
00:14:45.000 : en:3
00:18:52.000 : en:4
00:27:30.000 : en:5
00:36:00.000 : en:6
00:42:51.000 : en:7
00:48:29.000 : en:8
00:59:25.000 : en:9
01:09:19.000 : en:10
01:15:52.000 : en:11
01:24:40.000 : en:12
01:31:02.000 : en:13
01:39:30.000 : en:14
01:45:05.000 : en:15
01:49:50.000 : en:16

 



VIP 1-Part

Cornfile

[ Download ]


cornfile.com



Free 1GB/Part

เปลี่ยนชื่อไฟล์ตามลำดับก่อนเเยกไฟล์ เช่น

Baywatch.part1.rar
Baywatch.part2.rar
Baywatch.part3.rar

ไฟล์เสียสามารถซ่อมได้


Leave a Reply

Your email address will not be published. Required fields are marked *